Descargar The A-Team [2010] [Ts V2 READNFO XViD] [dual-Latino-Ingles]

Ver el tema anterior Ver el tema siguiente Ir abajo

Descargar The A-Team [2010] [Ts V2 READNFO XViD] [dual-Latino-Ingles]

Mensaje  Admin el Vie Ago 12, 2011 5:24 am



The A-Team [2010] [DVDRip] [Sub] HD



TÍTULO ORIGINAL The A-Team
AÑO
2010 Ver trailer externo
DURACIÓN
min. Trailers/Vídeos
PAÍS
[Estados Unidos] Sección visual
DIRECTOR Joe Carnahan
GUIÓN Michael Brandt, Derek Haas, Skip Woods (Personajes: Stephen J. Cannell)
MÚSICA Alan Silvestri
FOTOGRAFÍA Mauro Fiore
REPARTO Liam Neeson, Bradley Cooper, Quinton ‘Rampage’ Jackson, Sharlto Copley, Jessica Biel
PRODUCTORA 20th Century Fox / Dune Entertainment / Scott Free Productions / Stephen J. Cannell Productions
Adaptación al cine de la popular serie de televisión. Vancouver, Columbia Británica, Canadá. “Me encanta que los planes salgan bien” es la frase identificativa del Coronel Hannibal Smith (Liam Neeson), el líder de “El Equipo A”, una unidad especial de antiguos soldados de las Fuerzas Especiales que fueron acusados de un crimen que no cometieron. Ellos son Hannibal, un experto planificador de misiones ingeniosas que requieren una reacción en una fracción de segundo, habilidades especiales y un equipo de soldados competentes… y excéntricos; Templenton ‘Fénix’ Peck (Bradley Cooper) quien puede conseguir cualquier cosa para las actividades poco ortodoxas y audaces del Equipo; M.A. Barracus (Quinton ‘Rampage’ Jackson), el conductor y músculo del Equipo; y Murdock (Charlto Copley), un pilo excepcional y loco acreditado. La Capitana Charisa (Jessica Biel) es un antiguo ligue de Fénix que ahora persigue a El Equipo A por un crimen que no cometieron y Lynch (Patrick Wilson) es un misterioso agente de la CIA que juega un papel importante en la misión más explosiva del Equipo. (FILMAFFINITY)


Ripper ...........: IMAGiNE IMDB Rating.......:7.2/10

Video Codec.......: XVID Release Date......:13/06/10

Audio Codec.......:MP3 Theatre Date......:11/06/10

Audio Bitrate.....:128 Runtime.......:1h 47mn

Subtitles.........:ENG WHEN NEEDED Language..........:ENGLISH

Resolution...... 640 x 272 IMDb URL..........:http://www.imdb.com/title/tt0429493/

DETAILS:
Video
ID : 0
Format : MPEG-4 Visual
Format profile : Advanced Simple@L5
Format settings, BVOP : Yes
Format settings, QPel : No
Format settings, GMC : No warppoints
Format settings, Matrix : Default (MPEG)
Muxing mode : Packed bitstream
Codec ID : XVID
Codec ID/Hint : XviD
Duration : 1h 47mn
Bit rate : 1 697 Kbps
Width : 640 pixels
Height : 272 pixels
Display aspect ratio : 2.35
Frame rate : 25.000 fps
Resolution : 24 bits
Colorimetry : 4:2:0
Scan type : Progressive
Bits/(Pixel*Frame) : 0.390
Stream size : 1.28 GiB (92%)
Writing library : XviD 1.2.1 (UTC 2008-12-04)
Audio
ID : 1
Format : MPEG Audio
Format version : Version 1
Format profile : Layer 3
Codec ID : 55
Codec ID/Hint : MP3
Duration : 1h 47mn
Bit rate mode : Constant
Bit rate : 128 Kbps
Channel(s) : 2 channels
Sampling rate : 44.1 KHz
Resolution : 16 bits
Stream size : 98.5 MiB (7%)
Alignment : Split accross interleaves
Interleave, duration : 40 ms (1.00 video frame)
Interleave, preload duration : 500 ms





http://depositfiles.com/files/k96lwtx7c




Admin
Admin

Mensajes : 765
Fecha de inscripción : 11/08/2011

Ver perfil de usuario http://bijamhn.foroslatin.com

Volver arriba Ir abajo

Ver el tema anterior Ver el tema siguiente Volver arriba

- Temas similares

 
Permisos de este foro:
No puedes responder a temas en este foro.